Mf Doom Torrent

Биография Альбомы Видеоклипы Галерея Статьи

Download/Stream Capital Steez's mixtape, AmeriKKKan Korruption Reloaded, for Free at MixtapeMonkey.com - Download/Stream Free Mixtapes and Music Videos from your favorite Hip-Hop/R&B artists. The easiest way to Download Free Mixtapes! MF Doom, Metal Fingers, Dizzee Rascal, DMX, GZA, Outkast, Youngbloodz, El-P, Trent Reznor, Mos Def, Kanye West, Talib Kweli, Common. Filename E: Temppi Musa MF Doom - Operation Doomsday 09 - The Hands Of Doom (skit).wav Peak level 98.8% Track quality 100.0% Test CRC 8D6C72DD Copy CRC 8D6C72DD Copy OK Track 10 Filename E: Temppi Musa MF Doom - Operation Doomsday 10 - Who You Think I Am (feat. King Ceasar, Rodan, Megalon, Kamakiras, & Kong).wav Peak level 98.8% Track. Real Name: Daniel Dumile Thompson. Profile: Daniel Dumile (/ˈduːmɪleɪ/ DOO-mil-ay; born January 9, 1971) is a hip hop recording artist best known for his 'super villain' stage persona and unique lyrics, Dumile has taken on several stage names in his career, most notably MF DOOM.

01. Act 1 [30:06]
02. Intermission [1:36]
03. Act 2 [19:38]

Размер 63 мб.

PASSWORD = hiphopforfree.com

Скачать рэп >>

01 - Fly That Knot (Talib Kweli Feat. Doom)
02 - Sniper Elite (J. Dilla & Doom)
03 - Yikes Scienz Of Life (Feat. Doom)
04 - Sorcerers (K.M.D)
05 - Da Supafriendz (Vast Aire Feat. Doom)
06 - Quite Buttery (Count Bass D Feat. Doom)
07 - ? (DOOM Feat. Kurious)
08 - All Outta Ale (The Prof Feat. Doom)
09 - E.N.Y. House (Masta Killa)
10 - Bell Of Doom (The Prof Feat. Doom)
11 - My Favorite Ladies (Doom)
12 - Street Corners (Doom Remix) (Masta Killa, Inspectah Deck & GZA)
13 - Angels (Doom & Ghostface)
14 - Fire Wood Drumstykx (J. Dilla & Doom)
15 - The Unexpected (Babu Feat. Doom and Sean Price)
16 - Project Jazz (Hell Razah, Talib Kweli & Viktor Vaughn)
17 - Black Gold (John Robinson)

Скачать рэп >>

01 - Supervillain Intro
02 - Gazzillion Ear
03 - Ballskin
04 - Yessir! (Feat. Raekwon)
05 - Absolutely
06 - Rap Ambush
07 - Lightworks
08 - Batty Boyz
09 - Angelz (Feat. Tony Starks)
10 - Cellz
11 - Still Dope (Feat. Empress Sharhh)
12 - Microwave Mayo
13 - More Rhymin' (Feat. Kurious)
14 - That's That
15 - Supervillainz
16 - Bumpy's Message
17 - Thank Yah

Скачать рэп >>

01 - Change the Beat
02 - Name Dropping
03 - Greenbacks
04 - Go With the Drawls
05 - Gas Flows
06 - Operation Doomsday
07 - Hey!
08 - Accordion
09 - Great Day
10 - Rhymes Like Dimes
11 - I Hear Voices
12 - My Favorite Ladies
13 - One Beer
14 - Fine Print

Скачать рэп >>

01 - It Ain't Nuthin (The Chapter Remix)
02 - Hoe Cakes (Ant Remix)
03 - My Favorite Ladies (KMD Remix)
04 - Change The Beat (Inhumanz Remix)
05 - Hot Guacamole (Feat. MC Paul Barman)
06 - Hoe Cakes (Jake One Remix)
07 - One Beer (Madlib Remix)
08 - All Outta Ale (The Professor Meets The Supervillian)
09 - Vomit (Feat. Parallel Thought)
10 - Hoe Cakes (Beatboxappella)

Скачать рэп >>


01 - Beef Rapp
02 - Hoe Cakes
03 - Potholderz (Feat. Count Bass D)
04 - One Beer
05 - Deep Fried Frenz
06 - Poo-Putt Platter
07 - Fillet-O-Rapper
08 - Gumbo
09 - Fig Leaf Bi-Carbonate
10 - Kon Karne
11 - Guinesses (Feat. Angelika & 4ize)
12 - Kon Queso
13 - Rapp Snitch Knishes (Feat. Mr. Fantastik)
14 - Vomitspit
15 - Kookies

Скачать рэп >>

01 - The Time We Faced Doom (Skit)
02 - Doomsday
03 - Rhymes Like Dimes (Feat. Cucumber Slice)
04 - The Finest (Feat. Tommy Gunn)
05 - Back In The Days (Skit)
06 - Go With The Flow
07 - Tick, Tick... (Feat. MF Grimm)
08 - Red And Gold (Feat. King Ghidra)
09 - The Hands Of Doom (Skit)
10 - Who You Think I Am (Feat. King Ceasar & Rodan and Megalon & Kamakiras and Kong)
11 - Doom, Are You Awake (Skit)
12 - Hey!
13 - Operation Greenbacks
14 - The Mic
15 - The Mystery Of Doom (Skit)
16 - Dead Bent
17 - Gas Drawls
18 - ? (Feat. Kurious)
19 - I Hear Voices (Part One) (Bonus Track)

Скачать рэп >>


Doom
Главная Новости Рэп Направления Хип-Хоп Культура Зарубежный рэп Русский рэп Контакты

Mf Doom Madvillain Torrent


Mf Doom Born Like This Torrent

Стаж: 14 лет 1 месяц

Сообщений: 117

beefee · 17-Июн-08 02:43(12 лет 5 месяцев назад, ред. 17-Июн-08 02:50)

MF Doom - Operation Doomsday
Страна: USA
Жанр: Hip-Hop
Год выпуска: 1999
Формат: FLAC (tracks)
Битрейт аудио: lossless
Продолжительность: 58:42
Трэклист:
1. 'The Time We Faced Doom (Skit)' 2:04
2. 'Doomsday' 4:58
3. 'Rhymes Like Dimes' 4:19
* Featuring DJ Cucumber Slice
4. 'The Finest' 4:00
* Featuring Tommy Gunn
5. 'Back in the Days (Skit)' 0:45
6. 'Go With the Flow' 3:36
7. 'Tick, Tick...' 4:04
* Featuring MF Grimm
8. 'Red & Gold' 4:42
* Featuring King Geedorah
9. 'The Hands Of Doom' 1:51
* Produced by DJ Subroc
10. 'Who You Think I Am?' 3:24
* Featuring King Caesar, Rodan, Megalon, Kamackeris & Kong
11. 'Doom, Are You Awake? (Skit)' 1:12
12. 'Hey!' 3:46
13. 'Greenbacks' 3:48
* Featuring Megalon & King Geedorah
14. 'The M.I.C.' 3:03
15. 'The Mystery Of Doom (Skit)' 0:24
16. 'Dead Bent' 2:22
17. 'Gas Drawls' 3:45
18. '?' 3:30
* Featuring Kurious Jorge
19. 'Hero vs. Villain (Epilogue)' 3:02
Доп. информация: Operation: Doomsday is the debut solo album by hip hop artist Daniel Dumile under his MF DOOM alias, marking Dumile's return to the hip hop scene after KMD's demise. It was released as CD & 2/LP on Fondle 'Em Records in January of 1999, and reissued by Sub Verse Records in 2001 with a slightly altered track listing
EAC extraction logfile from 5. July 2006, 17:10 for CD
MF Doom / Operation: Doomsday
Used drive : HL-DT-STDVDRAM GSA-4160B Adapter: 1 ID: 0
Read mode : Secure with NO C2, accurate stream, disable cache
Read offset correction : 667
Overread into Lead-In and Lead-Out : No
Used output format : C:Program FilesFLACflac.exe (User Defined Encoder)
128 kBit/s
Additional command line options : -V -8 -T 'artist=%a' -T 'title=%t' -T 'album=%g' -T 'date=%y' -T 'tracknumber=%n' -T 'genre=%m' %s
Other options :
Fill up missing offset samples with silence : Yes
Delete leading and trailing silent blocks : No
Installed external ASPI interface
Track 1
Filename E:TemppiMusaMF Doom - Operation Doomsday01 - The Time We Faced Doom (skit).wav
Pre-gap length 0:00:02.00
Peak level 98.8 %
Track quality 100.0 %
Test CRC F16684EC
Copy CRC F16684EC
Copy OK
Track 2
Filename E:TemppiMusaMF Doom - Operation Doomsday02 - Doomsday.wav
Peak level 98.8 %
Track quality 100.0 %
Test CRC F53DC2BC
Copy CRC F53DC2BC
Copy OK
Track 3
Filename E:TemppiMusaMF Doom - Operation Doomsday03 - Rhymes Like Dimes (feat. Cucumber Slice).wav
Peak level 98.8 %
Track quality 99.9 %
Test CRC 3087C9BD
Copy CRC 3087C9BD
Copy OK
Track 4
Filename E:TemppiMusaMF Doom - Operation Doomsday04 - The Finest (feat. Tommy Gunn).wav
Peak level 98.8 %
Track quality 100.0 %
Test CRC 5D9A65FB
Copy CRC 5D9A65FB
Copy OK
Track 5
Filename E:TemppiMusaMF Doom - Operation Doomsday05 - Back In The Days (skit).wav
Peak level 100.0 %
Track quality 100.0 %
Test CRC 8DD218C7
Copy CRC 8DD218C7
Copy OK
Track 6
Filename E:TemppiMusaMF Doom - Operation Doomsday06 - Go With The Flow.wav
Peak level 98.8 %
Track quality 100.0 %
Test CRC 8B7CE1AF
Copy CRC 8B7CE1AF
Copy OK
Track 7
Filename E:TemppiMusaMF Doom - Operation Doomsday07 - Tick, Tick... (feat. MF Grimm).wav
Peak level 98.8 %
Track quality 100.0 %
Test CRC C8116E6A
Copy CRC C8116E6A
Copy OK
Track 8
Filename E:TemppiMusaMF Doom - Operation Doomsday08 - Red And Gold (feat. King Ghidra).wav
Peak level 98.8 %
Track quality 100.0 %
Test CRC A94B5A06
Copy CRC A94B5A06
Copy OK
Track 9
Filename E:TemppiMusaMF Doom - Operation Doomsday09 - The Hands Of Doom (skit).wav
Peak level 98.8 %
Track quality 100.0 %
Test CRC 8D6C72DD
Copy CRC 8D6C72DD
Copy OK
Track 10
Filename E:TemppiMusaMF Doom - Operation Doomsday10 - Who You Think I Am (feat. King Ceasar, Rodan, Megalon, Kamakiras, & Kong).wav
Peak level 98.8 %
Track quality 100.0 %
Test CRC 94BA4738
Copy CRC 94BA4738
Copy OK
Track 11
Filename E:TemppiMusaMF Doom - Operation Doomsday11 - Doom, Are You Awake (skit).wav
Peak level 98.8 %
Track quality 100.0 %
Test CRC B85FB68E
Copy CRC B85FB68E
Copy OK
Track 12
Filename E:TemppiMusaMF Doom - Operation Doomsday12 - Hey!.wav
Peak level 98.8 %
Track quality 100.0 %
Test CRC E8E16B1A
Copy CRC E8E16B1A
Copy OK
Track 13
Filename E:TemppiMusaMF Doom - Operation Doomsday13 - Operation- Greenbacks (feat. Megalon & King Ghidra).wav
Peak level 98.8 %
Track quality 100.0 %
Test CRC 8314A359
Copy CRC 8314A359
Copy OK
Track 14
Filename E:TemppiMusaMF Doom - Operation Doomsday14 - The Mic.wav
Peak level 98.8 %
Track quality 100.0 %
Test CRC 47A0D939
Copy CRC 47A0D939
Copy OK
Track 15
Filename E:TemppiMusaMF Doom - Operation Doomsday15 - The Mystery Of Doom (skit).wav
Peak level 98.8 %
Track quality 100.0 %
Test CRC 83F1FB77
Copy CRC 83F1FB77
Copy OK
Track 16
Filename E:TemppiMusaMF Doom - Operation Doomsday16 - Dead Bent.wav
Peak level 98.8 %
Track quality 100.0 %
Test CRC B13C62E7
Copy CRC B13C62E7
Copy OK
Track 17
Filename E:TemppiMusaMF Doom - Operation Doomsday17 - Gas Drawls.wav
Peak level 98.8 %
Track quality 100.0 %
Test CRC 4263184E
Copy CRC 4263184E
Copy OK
Track 18
Filename E:TemppiMusaMF Doom - Operation Doomsday18 - (feat. Kurious).wav
Peak level 98.8 %
Track quality 99.9 %
Test CRC C5B6BABA
Copy CRC C5B6BABA
Copy OK
Track 19
Filename E:TemppiMusaMF Doom - Operation Doomsday19 - I Hear Voices (Part One).wav
Peak level 98.8 %
Track quality 100.0 %
Test CRC 44C983E2
Copy CRC 44C983E2
Copy OK
No errors occured
End of status report
Download
  • 386.1 MB
Rutracker.org не распространяет и не хранит электронные версии произведений, а лишь предоставляет доступ к создаваемому пользователями каталогу ссылок на торрент-файлы, которые содержат только списки хеш-сумм
Как скачивать?(для скачивания .torrent файлов необходима регистрация)

Стаж: 14 лет 1 месяц

Сообщений: 117

beefee · 27-Июн-08 22:22(спустя 10 дней)

Cpt Chief

Стаж: 12 лет 11 месяцев

Сообщений: 147


Cpt Chief · 17-Июл-08 22:53(спустя 20 дней)

Спасибо выложите еще MF Doom Meets Clutchy Hopkins в lossless

Стаж: 14 лет 1 месяц

Сообщений: 117

beefee · 18-Июл-08 08:37(спустя 9 часов)

Может позже. В моем wishlist'е на закачку Meets Clutchy Hopkins находится далеко не на первом месте

Max The Keeper

Стаж: 13 лет 5 месяцев

Сообщений: 424

Max The Keeper · 22-Июл-08 23:08(спустя 4 дня)

Спасибо! Кста, у меня есть Madvillain - надо кому..? ))

Стаж: 14 лет 1 месяц

Сообщений: 117

beefee · 22-Июл-08 23:50(спустя 42 мин.)

тоже есть. но похерен где то на полках. выложи. думаю покачают люди

Manned

Стаж: 10 лет 11 месяцев

Сообщений: 3


Manned · 24-Мар-10 22:13(спустя 1 год 8 месяцев)

a_tauri

Стаж: 10 лет 9 месяцев

Сообщений: 161

a_tauri · 11-Янв-11 14:08(спустя 9 месяцев)

Спасибо выложите еще MF Doom Meets Clutchy Hopkins в lossless
Это вообще что-то левое, а вот альбом Vaudeville Villain (2003) очень хотелось бы послушать.
За Думздей спасибо, понятное дело.

Mr. Фет

Стаж: 11 лет 6 месяцев

Сообщений: 350

Mr. Фет · 12-Янв-11 06:22(спустя 16 часов, ред. 12-Янв-11 06:22)

Это вообще что-то левое, а вот альбом Vaudeville Villain (2003) очень хотелось бы послушать.
Так оно тут лежит давно.
Ну и пользуясь случаем, поинтересуюсь...
Нужна ли кому-нибудь тема с дискографией Дума, где все рипы будут слиты из сети? Или кто-нибудь в перспективе хочет сделать диску из собственных рипов?

a_tauri

Стаж: 10 лет 9 месяцев

Сообщений: 161

a_tauri · 12-Янв-11 11:43(спустя 5 часов, ред. 12-Янв-11 11:43)

...
Так оно тут лежит давно.
...
Большое спасибо. Я искал по MF Doom.

tushae

Стаж: 12 лет 2 месяца

Сообщений: 34


tushae · 25-Апр-20 22:15(спустя 9 лет 3 месяца)

Главная»Музыка»Рэп, Хип-Хоп, R'n'B»Зарубежный Рэп, Хип-Хоп (lossless)